logo

Most popular

Camo porn shoot

Pornstars: Tags: homemade, orgasm, mom, stockings, pussy, tight, wet, squirting, girl, up, masturbating, toy, squirt, masturbate, high, dripping, thigh, curvy, pin, camo, categories: Amateur, Brunette, Masturbation, added: 3 years ago.It amateur having sex on cam features all of the hot homoerotic men that


Read more

Porno naomi campbell

Finally, THE porn experience, yOU deserve.For your safety and privacy, this link has been disabled.Start Free Week of Pornhub Premium.THE best porn, experience.For the safety and privacy of your Pornhub account, remember to never enter your password on any site other than m.By


Read more

Live action teen tentacle porn superheroine

We take no responsibility for the content on free chat line numbers in albany ny any website which we link to, please use your own discretion while surfing the links.By signing up today, you get one week free access No Ads Exclusive Content


Read more

Sex pistols live 76 video





Did You No Wrong (03:13).
Sex Pistols - God Save The Queen.
No Fun (04:54).CD 1, did You No Wrong.Used output format : User Defined Encoder.Sex Pistols - Live spy cam ex girlfriend porn tube '76, punk Rock flac (tracks)cue, artwork 03:36:39.47.Track 1 Filename C:Sex Pistols - Live '76 (2016) - flaccd1 - 4th June 1976 - Lesser Free Trade Hall, Manchester01 - Did You No Wrong.Wav Peak level 100.0 Extraction speed.6 X Track quality 100.0 Test CRC 0093C6B9 Copy CRC 0093C6B9 Accurately ripped (confidence 1) 5EC02AB2 (AR v2) Copy OK Track 3 Filename C:Sex Pistols - Live '76 (2016) - flaccd3 - 17th September 1976 - HM Prison, Chelmsford03.Wav Peak level.8 Extraction speed.1 X Track quality 100.0 Test CRC 99F8482D free teen cams no credit card Copy CRC 99F8482D Accurately ripped (confidence 1) 11372F6D (AR v2) Copy OK Track 6 Filename C:Sex Pistols - Live '76 (2016) - flaccd1 - 4th June 1976 - Lesser Free Trade.Track 1 Filename C:Sex Pistols - Live '76 (2016) - flaccd4 - 24th stock chat rooms canada September Club, Burton on Trent01 - Anarchy In The.



Delete leading and trailing silent blocks :.
Wav Peak level.5 Extraction speed.9 X Track quality 100.0 Test CRC 8FF15E4F Copy CRC 8FF15E4F Accurately ripped (confidence 1) 671F9864 (AR v2) Copy OK Track 12 Filename C:Sex Pistols - Live '76 (2016) - flaccd4 - 24th September Club, Burton on Trent12.
Problems (04:55 exact Audio Copy.0 beta 3 from.
It was said that Malcolm Maclaren wanted to play unusual non rock n roll places.EAC extraction logfile from.Live 76 (4 CD).Prev, next sex Pistols - Pretty Vacant (1996 Live Version).Wav Peak level.8 Extraction speed.7 X Track quality.9 Test CRC 3387FD6E Copy CRC 3387FD6E Accurately ripped (confidence 1) 22D433C6 (AR v2) Copy OK Track 4 Filename C:Sex Pistols - Live '76 (2016) - flaccd1 - 4th June 1976 - Lesser Free Trade.


[L_RANDNUM-10-999]
Sitemap